Железный человек 3 / Iron Man 3 (2013/DVDRip)

Железный человек 3 / Iron Man 3 (2013/DVDRip)




Железный человек 3 / Iron Man 3

Информация о фильме
Название: Железный человек 3
Оригинальное название: Iron Man 3
Год выхода: 2013
Жанр: фантастика, боевик, триллер

Режиссер: Шейн Блэк / Shane Black
В ролях: Роберт Дауни мл.
,

Гвинет Пэлтроу

, Дон Чидл, Гай Пирс
, Бен Кингсли, Ребекка Холл, Пол Беттани, Джон
Фавро, Уильям Сэдлер, Бинбин Фань[hr]О фильме: Когда мир
Старка рушится на его глазах по вине неизвестных противников, Тони
жаждет найти виновных и свести с ними счеты. Оказавшись в
безвыходной ситуации, Старк может рассчитывать только на себя и
свою изобретательность, чтобы защитить тех, кто ему дорог. Это
становится настоящим испытанием для героя, которому придется не
только сражаться с коварным врагом, но и разобраться в себе, чтобы
найти ответ на вопрос, который давно его тревожит: что важнее
— человек или костюм?

Железный человек 3 / Iron Man 3 (2013/DVDRip)




Железный человек 3 / Iron Man 3

Информация о фильме
Название: Железный человек 3
Оригинальное название: Iron Man 3
Год выхода: 2013
Жанр: фантастика, боевик, триллер

Режиссер: Шейн Блэк / Shane Black
В ролях: Роберт Дауни мл.
,

Гвинет Пэлтроу

, Дон Чидл, Гай Пирс
, Бен Кингсли, Ребекка Холл, Пол Беттани, Джон
Фавро, Уильям Сэдлер, Бинбин Фань[hr]О фильме: Когда мир
Старка рушится на его глазах по вине неизвестных противников, Тони
жаждет найти виновных и свести с ними счеты. Оказавшись в
безвыходной ситуации, Старк может рассчитывать только на себя и
свою изобретательность, чтобы защитить тех, кто ему дорог. Это
становится настоящим испытанием для героя, которому придется не
только сражаться с коварным врагом, но и разобраться в себе, чтобы
найти ответ на вопрос, который давно его тревожит: что важнее
— человек или костюм?
________________
Знаете ли вы, что:
Железный Человек создан Стэном Ли, Ларри Либиром, Доном Хеком и
Джеком Кирби в 1963 году в комиксе Tales of Suspense, # 39.
Джемма Артертон, Дайан Крюгер и Айла Фишер рассматривались на роль,
которую в итоге получила Джессика Честейн. Однако из-за конфликта в
графике Честейн впоследствии пришлось отказаться от съемок в
картине. Ее заменила Ребекка Холл.

IMDB Rating: 8.0/10 (38,326 votes)
Выпущено: США, Marvel Studios Inc., Paramount Pictures
Продолжительность: 02:10:16
Озвучивание:
Дублированное

[Лицeнзия!]

Файл
Формат: AVI (XviD)
Качество: DVDRip

Видео: 720×304 (2.37:1), 23.976 fps, XviD build 65, 1732
kbps avg, 0.22 bit/pixel
Аудио: 48 kHz, AC3 Dolby Digital, 3/2 (L,C,R,l,r) + LFE ch,
~384 kbps avg (Dub)

Размер: 2.05 Gb

Железный человек 3 / Iron Man 3 (2013/DVDRip)

Железный человек 3 / Iron Man 3 (2013/DVDRip) Железный человек 3 / Iron Man 3 (2013/DVDRip) Железный человек 3 / Iron Man 3 (2013/DVDRip) Железный человек 3 / Iron Man 3 (2013/DVDRip)

Железный человек 3 / Iron Man 3 (2013/DVDRip)

General
Complete name         
           
      :
F:Zhеleznyj.chеlovek.3.2013.D.DVDRiр.avi
Format         
           
           
 : AVI
Format/Info         
           
        : Audio Video
Interleave
File size         
           
          :
2.05 GiB
Duration         
           
         
 : 2h 10mn
Overall bit rate       
           
     : 1 722 Kbps
Writing application       
           
  : VirtualDubMod 1.5.10.3 (build
2550/release)
Writing library       
           
      : VirtualDubMod build
2550/release

Video
ID           
           
           
   : 0
Format         
           
           
 : MPEG-4 Visual
Format profile       
           
       : Advanced
Simple@L5
Format settings, BVOP       
           
: 2
Format settings, QPel       
           
: No
Format settings, GMC       
           
 : No warppoints
Format settings, Matrix       
          :
Custom matrix
Codec ID         
           
         
 : XVID
Codec ID/Hint         
           
      : XviD
Duration         
           
         
 : 2h 10mn
Bit rate         
           
         
 : 1 722 Kbps
Width         
           
           
  : 720 pixels
Height         
           
           
 : 304 pixels
Display aspect ratio       
           
 : 2.35:1
Frame rate         
           
         :
23.976 fps
Color space         
           
        : YUV
Chroma subsampling       
           
   : 4:2:0
Bit depth         
           
          : 8
bits
Scan type         
           
          :
Progressive
Compression mode       
           
     : Lossy
Bits/(Pixel*Frame)     
           
     : 0.389
Stream size         
           
        : 1.88 GiB
(70%)
Writing library       
           
      : XviD 64

Audio #1
ID           
           
           
   : 1
Format         
           
           
 : AC-3
Format/Info         
           
        : Audio Coding
3
Mode extension       
           
       : CM (complete
main)
Codec ID         
           
         
 : 2000
Duration         
           
         
 : 1h 39mn
Bit rate mode         
           
      : Constant
Bit rate         
           
         
 : 384 Kbps
Channel(s)       
           
         
 : 6 channels
Channel positions       
           
    : Front: L C R, Side:
L R, LFE
Sampling rate         
           
      : 48.0 KHz
Bit depth         
           
          : 16
bits
Compression mode       
           
     : Lossy
Stream size         
           
        : 274 MiB
(13%)
Alignment         
           
          :
Split accross

Скачать Железный человек 3 / Iron Man 3
(2013/DVDRip)

Внимание! У вас нет прав для просмотра скрытого текста.

Добавить комментарий

Ваш e-mail не будет опубликован. Обязательные поля помечены *